请选择 进入手机版 | 继续访问电脑版
 找回密码
 立即注册
查看: 13304|回复: 25

[玛莎和熊/Masha and the Bear 第一至二季][全02季打包][英语英字][MKV][1080P]

[复制链接]

548

主题

599

帖子

599

积分

牛皮知州

Rank: 30Rank: 30Rank: 30Rank: 30Rank: 30Rank: 30Rank: 30Rank: 30

UID
18
精华
0
兔币
918
牛币
1089
贡献
81
在线时间
95 小时
注册时间
2015-5-11
发表于 2019-1-5 09:38:21 | 显示全部楼层 |阅读模式




1.jpg
◎译  名 玛莎和熊 / 玛莎与熊
◎片  名 МАША И  МЕДВЕДЬ
◎年  代 2009
◎产  地 俄罗斯
◎类  别 喜剧 / 动画 / 短片 / 儿童 / 奇幻
◎语  言 俄语
◎上映日期 2009-01-07
◎IMDb评分 7.8/10 from 1941 users
◎片  长 6分钟
◎导  演 Denis Chervyatsov / Oleg Kuzovkov / Олег Ужинов / Марина Нефёдова
◎编  剧 Oleg Kuzovkov
◎主  演 Alina Kukushkina



◎简  介  

  在2009年的俄罗斯3D动画《玛莎和熊》中,大熊变成了超级友善的“爸爸”级人物,无微不至的照顾着顽皮的小玛莎。小玛莎从初次相遇起就一刻都不让憨憨的熊爸爸安静下来,各种搞笑,闯祸,结局总是和好如初。

Video
ID : 2
Format : AVC
Format/Info : Advanced Video Codec
Format profile : High@L4
Format settings : CABAC / 4 Ref Frames
Format settings, CABAC : Yes
Format settings, ReFrames : 4 frames
Codec ID : V_MPEG4/ISO/AVC
Duration : 14 min 12 s
Bit rate : 5 412 kb/s
Width : 1 920 pixels
Height : 1 080 pixels
Display aspect ratio : 16:9
Frame rate mode : Constant
Frame rate : 25.000 FPS
Color space : YUV
Chroma subsampling : 4:2:0
Bit depth : 8 bits
Scan type : Progressive
Bits/(Pixel*Frame) : 0.104
Stream size : 550 MiB (97%)
Language : English
Default : Yes
Forced : No
Color range : Limited
Color primaries : BT.709
Transfer characteristics : BT.709
Matrix coefficients : BT.709

Audio
ID : 1
Format : AAC LC
Format/Info : Advanced Audio Codec Low Complexity
Codec ID : A_AAC-2
Duration : 14 min 13 s
Bit rate : 154 kb/s
Channel(s) : 2 channels
Channel layout : L R
Sampling rate : 48.0 kHz
Frame rate : 46.875 FPS (1024 SPF)
Compression mode : Lossy
Stream size : 15.7 MiB (3%)
Language : English
Default : Yes
Forced : No

Text
ID : 3
Format : UTF-8
Codec ID : S_TEXT/UTF8
Codec ID/Info : UTF-8 Plain Text
Duration : 13 min 28 s
Bit rate : 47 b/s
Count of elements : 162
Stream size : 4.70 KiB (0%)
Language : English
Default : Yes
Forced : No



游客,如果您要查看本帖隐藏内容请回复


回复

使用道具 举报

0

主题

66

帖子

0

积分

牛皮草民

Rank: 10Rank: 10Rank: 10

UID
395
精华
0
兔币
-212
牛币
6
贡献
0
在线时间
0 小时
注册时间
2015-11-25
发表于 2019-2-15 17:59:22 | 显示全部楼层
管它三七二十一,看贴要回贴才是王道!       
回复 支持 反对

使用道具 举报

0

主题

61

帖子

22

积分

牛皮草民

Rank: 10Rank: 10Rank: 10

UID
415
精华
0
兔币
-194
牛币
8
贡献
0
在线时间
1 小时
注册时间
2015-11-27
发表于 2019-6-1 00:48:07 | 显示全部楼层
这么经典的话只有楼主能想到!       
回复 支持 反对

使用道具 举报

0

主题

65

帖子

0

积分

牛皮草民

Rank: 10Rank: 10Rank: 10

UID
366
精华
0
兔币
-240
牛币
3
贡献
0
在线时间
0 小时
注册时间
2015-11-22
发表于 2019-6-6 02:51:19 | 显示全部楼层
楼主最近很热情啊!
回复 支持 反对

使用道具 举报

0

主题

1

帖子

1

积分

牛皮草民

Rank: 10Rank: 10Rank: 10

UID
24091
精华
0
兔币
1
牛币
2
贡献
0
在线时间
0 小时
注册时间
2020-7-17
发表于 2020-7-17 10:13:17 | 显示全部楼层
管它三七二十一,看贴要回贴才是王道!   
回复 支持 反对

使用道具 举报

0

主题

1

帖子

1

积分

牛皮草民

Rank: 10Rank: 10Rank: 10

UID
24178
精华
0
兔币
1
牛币
2
贡献
0
在线时间
0 小时
注册时间
2020-8-4
发表于 2020-8-4 21:24:54 | 显示全部楼层
参与话题,看电视参与话题,看电视参与话题,看电视
回复 支持 反对

使用道具 举报

0

主题

1

帖子

1

积分

牛皮草民

Rank: 10Rank: 10Rank: 10

UID
24220
精华
0
兔币
1
牛币
2
贡献
0
在线时间
0 小时
注册时间
2020-8-12
发表于 2020-8-12 16:26:27 | 显示全部楼层
好像要这个玛莎和熊的英文版啊   谢谢楼主
回复 支持 反对

使用道具 举报

0

主题

1

帖子

1

积分

牛皮草民

Rank: 10Rank: 10Rank: 10

UID
24238
精华
0
兔币
1
牛币
2
贡献
0
在线时间
0 小时
注册时间
2020-8-15
发表于 2020-8-15 14:35:08 | 显示全部楼层
好喜欢这部资源,看看能不能下载
回复 支持 反对

使用道具 举报

0

主题

2

帖子

2

积分

牛皮草民

Rank: 10Rank: 10Rank: 10

UID
24264
精华
0
兔币
2
牛币
2
贡献
0
在线时间
0 小时
注册时间
2020-8-20
发表于 2020-8-20 22:38:08 | 显示全部楼层

好喜欢这部资源,看看能不能下载
回复 支持 反对

使用道具 举报

0

主题

2

帖子

2

积分

牛皮草民

Rank: 10Rank: 10Rank: 10

UID
24264
精华
0
兔币
2
牛币
2
贡献
0
在线时间
0 小时
注册时间
2020-8-20
发表于 2020-8-20 23:01:19 | 显示全部楼层
弱弱的问下,下载的种子有效吗,下载一直显示0%
回复 支持 反对

使用道具 举报

您需要登录后才可以回帖 登录 | 立即注册

本版积分规则

快速回复 返回顶部 返回列表